Julie Driscoll, Brian Auger & The Trinity-Streetnoise (1969)



Great ,great Auger album with fantastic singer Julie Driscoll! There are many albums in Brian Auger discography, but only few of them include Julie Driscoll voice.

Very innovative sound ( as for 1969) combines heavy Auger Hammond with some bluesy and jazzy drumming and great cold and strong "futuristic" Julie's voice. In fact, we have there one of the earliest jazz-fusion records ever, still with strong blues and r'n'b roots. But Julie's voice is very non-jazzy. In combinations with heavy organ solos it makes very unusual atmosphere.

Not all track contain vocal, only about half of them. And instrumentals are good enough, but songs with Julie all are gem! Some are usual r'n'b, some has bluesy feel, and other are very jazzy. But all make very strange and magic atmosphere, catching you for years to come.

I believe, that some could be unhappy with strong "hippie" feeling from all the music, with domination of "Doors" style music ( "Light My Fire"cover is presented with very unusual Julie's vocal and different rhythmics). But I believe, that that album is one of greatest early jazz-fusion albums of late sixties.

Line-up / Musicians

-Brian "Auge" Auger/ organ, piano, electric piano, vocals
-Julie "Jools" Driscoll/ vocals, acoustic guitar
-Clive "Toli" Thacker/ drums, percussion
-David "Lobs" Ambrose/ 4- and 6- string electric bass, acoustic guitar, vocals

Studio Album, released in 1969

Songs / Tracks Listing


1. Tropic of Capricorn (5:32)
2. Czechoslovakia (6:21)
3.Take Me to the Water (4:17)
4. Word About Colour (1:38)
5. Light My Fire (4:21)
6. Indian Rope Man (3:22)
7. When I Was a Young Girl (7:03)
8. Flesh Failures [Let the Sunshine In](3:04)
9. Ellis Island (4:10)
10. In Search of the Sun (4:22)
11. Finally Found You Out (4:12)
12. Looking in the Eye of the World (5:02)
13. Vauxhall to Lambeth Bridge (6:31)
14. All Blues Davis (5:41)
15. I've Got Life (4:28)
16. Save the Country (3:58)

total album time 74:23 minutes

A MUST HAVE
===>Free Text<=== 

7 comments:

Guitarradeplastico your favorite musician said...

please re-up

progDeaf gerEars said...

And the street is re upped -:)

Guitarradeplastico your favorite musician said...

many thanks

Anonymous said...

What is the psw ? val doesn't work :-/

progDeaf gerEars said...

But Val work -;)

hellare said...

why Streetnoise.cue 0 byte?

progDeaf gerEars said...

As you can see the Cue is okay,so re download or:
you can copy and paste the text here below ,
first: save it on txt
second: change txt on cue.
************************************************************
REM GENRE Fusion
REM DATE 1969
REM DISCID DC116110
REM COMMENT "ExactAudioCopy v0.99pb5"
PERFORMER "Julie Driscoll, Brian Auger & The Trinity"
TITLE "Streetnoise"
FILE "01 - Tropic Of Capricorn.wav" WAVE
TRACK 01 AUDIO
TITLE "Tropic Of Capricorn"
PERFORMER "Julie Driscoll, Brian Auger & The Trinity"
INDEX 01 00:00:00
TRACK 02 AUDIO
TITLE "Czechoslovakia"
PERFORMER "Julie Driscoll, Brian Auger & The Trinity"
INDEX 00 05:31:33
FILE "02 - Czechoslovakia.wav" WAVE
INDEX 01 00:00:00
FILE "03 - Take Me To The Water.wav" WAVE
TRACK 03 AUDIO
TITLE "Take Me To The Water"
PERFORMER "Julie Driscoll, Brian Auger & The Trinity"
INDEX 01 00:00:00
FILE "04 - A Word About Colour.wav" WAVE
TRACK 04 AUDIO
TITLE "A Word About Colour"
PERFORMER "Julie Driscoll, Brian Auger & The Trinity"
INDEX 01 00:00:00
FILE "05 - Light My Fire.wav" WAVE
TRACK 05 AUDIO
TITLE "Light My Fire"
PERFORMER "Julie Driscoll, Brian Auger & The Trinity"
INDEX 01 00:00:00
FILE "06 - Indian Rope Man.wav" WAVE
TRACK 06 AUDIO
TITLE "Indian Rope Man"
PERFORMER "Julie Driscoll, Brian Auger & The Trinity"
INDEX 01 00:00:00
FILE "07 - When I Was Young.wav" WAVE
TRACK 07 AUDIO
TITLE "When I Was Young"
PERFORMER "Julie Driscoll, Brian Auger & The Trinity"
INDEX 01 00:00:00
FILE "08 - Flesh Failures (Let The Sunshine In).wav" WAVE
TRACK 08 AUDIO
TITLE "Flesh Failures (Let The Sunshine In)"
PERFORMER "Julie Driscoll, Brian Auger & The Trinity"
INDEX 01 00:00:00
FILE "09 - Ellis Island.wav" WAVE
TRACK 09 AUDIO
TITLE "Ellis Island"
PERFORMER "Julie Driscoll, Brian Auger & The Trinity"
INDEX 01 00:00:00
TRACK 10 AUDIO
TITLE "In Search Of The Sun"
PERFORMER "Julie Driscoll, Brian Auger & The Trinity"
INDEX 00 04:10:20
FILE "10 - In Search Of The Sun.wav" WAVE
INDEX 01 00:00:00
FILE "11 - Finally Found You Out.wav" WAVE
TRACK 11 AUDIO
TITLE "Finally Found You Out"
PERFORMER "Julie Driscoll, Brian Auger & The Trinity"
INDEX 01 00:00:00
TRACK 12 AUDIO
TITLE "Looking In The Eye Of The World"
PERFORMER "Julie Driscoll, Brian Auger & The Trinity"
INDEX 00 04:12:04
FILE "12 - Looking In The Eye Of The World.wav" WAVE
INDEX 01 00:00:00
FILE "13 - Vauxhall To Lambeth Bridge.wav" WAVE
TRACK 13 AUDIO
TITLE "Vauxhall To Lambeth Bridge"
PERFORMER "Julie Driscoll, Brian Auger & The Trinity"
INDEX 01 00:00:00
FILE "14 - All Blues.wav" WAVE
TRACK 14 AUDIO
TITLE "All Blues"
PERFORMER "Julie Driscoll, Brian Auger & The Trinity"
INDEX 01 00:00:00
FILE "15 - I've Got Life.wav" WAVE
TRACK 15 AUDIO
TITLE "I've Got Life"
PERFORMER "Julie Driscoll, Brian Auger & The Trinity"
INDEX 01 00:00:00
FILE "16 - Save The Country.wav" WAVE
TRACK 16 AUDIO
TITLE "Save The Country"
PERFORMER "Julie Driscoll, Brian Auger & The Trinity"
INDEX 01 00:00:00